Go Back   High Quality Music Videos @ The Central Box > THE VIDEO BOX > Transcoded Videos
Follow The Central Box @ Twitter


Transcoded Videos 2nd+ generation encodes

Reply
 
LinkBack Thread Tools

Diomedes diaz el pajuate fue el ultimo video antes de morir 2014
Old December 29th, 2013, 06:11 AM   #1

 
kikolo is offline
Join Date: Jul 2012
Location: Venezuela
Posts: 156
Total 'Thanks' Received by This User :
2 For This Post
1,905 Total
Thumbs up Diomedes diaz el pajuate fue el ultimo video antes de morir 2014

DIOMEDES DIAZ EL PAJUATE FUE EL ULTIMO VIDEO ANTES DE MORIR AUDIO DEL CD 2014



You must click 'Thanks!' before you can see the data contained here.
The material contained in this external links is intented for promotional use by professional VJ's only. If you aren't one of them, you are forbidden to use it.


DIOMEDES DIAZ EL PAJUATE FUE EL ULTIMO VIDEO ANTES DE MORIR 2014.mp4
Format : MPEG-4
Format profile : Base Media / Version 2
Codec ID : mp42
File size : 84.7 MiB
Duration : 4mn 38s
Overall bit rate mode : Variable
Overall bit rate : 2 548 Kbps
Encoded date : UTC 2013-12-01 03:06:32
Tagged date : UTC 2013-12-01 03:06:32
gsst : 0
gstd : 278893
gssd : BBE8EC105HH1387856634505481
gshh : r2---intercable-ccs1.googlevideo.com

Video
ID : 1
Format : AVC
Format/Info : Advanced Video Codec
Format profile : High@L3.1
Format settings, CABAC : Yes
Format settings, ReFrames : 1 frame
Codec ID : avc1
Codec ID/Info : Advanced Video Coding
Duration : 4mn 38s
Bit rate : 2 353 Kbps
Maximum bit rate : 5 706 Kbps
Width : 1 280 pixels
Height : 720 pixels
Display aspect ratio : 16:9
Frame rate mode : Constant
Frame rate : 29.970 fps
Color space : YUV
Chroma subsampling : 4:2:0
Bit depth : 8 bits
Scan type : Progressive
Bits/(Pixel*Frame) : 0.085
Stream size : 78.2 MiB (92%)
Tagged date : UTC 2013-12-01 03:06:34

Audio
ID : 2
Format : AAC
Format/Info : Advanced Audio Codec
Format profile : LC
Codec ID : 40
Duration : 4mn 38s
Bit rate mode : Variable
Bit rate : 192 Kbps
Maximum bit rate : 202 Kbps
Channel count : 2 channels
Channel positions : Front: L R
Sampling rate : 44.1 KHz
Compression mode : Lossy
Stream size : 6.38 MiB (8%)
Title : IsoMedia File Produced by Google, 5-11-2011
Encoded date : UTC 2013-12-01 03:06:33
Tagged date : UTC 2013-12-01 03:06:34
 
Who Said Thanks:
KKNTE (June 25th, 2014), matilde (March 11th, 2014)
Reply

Tags
2014, antes, diaz, diomedes, fue, morir, pajuate, ultimo, video

Thread Tools

Posting Rules
You may not post new threads
You may not post replies
You may not post attachments
You may not edit your posts

BB code is On
Smilies are On
[IMG] code is On
HTML code is Off
Trackbacks are On
Pingbacks are On
Refbacks are On



All times are GMT -5. The time now is 03:27 PM.


Powered by vBulletin® Version 3.8.2
Copyright ©2000 - 2014, Jelsoft Enterprises Ltd.
Content Relevant URLs by vBSEO 3.3.2
Template-Modifications by TMS