Go Back   High Quality Music Videos @ The Central Box > THE VIDEO BOX > Transcoded Videos
Follow The Central Box @ Twitter


Transcoded Videos 2nd+ generation encodes

Reply
 
LinkBack Thread Tools

South Central Cartel - 17 Switches
Old July 21st, 2012, 01:41 PM   #1

 
C4R80N is offline
Join Date: Feb 2012
Location: Trinidad and Tobago
Posts: 275
Total 'Thanks' Received by This User :
6 For This Post
2,093 Total
Default South Central Cartel - 17 Switches


Video
ID : 1
Format : MPEG-4 Visual
Format profile : Simple@L1
Format settings, BVOP : No
Format settings, QPel : No
Format settings, GMC : No warppoints
Format settings, Matrix : Default (H.263)
Codec ID : 20
Duration : 4mn 4s
Bit rate mode : Variable
Bit rate : 3 603 Kbps
Maximum bit rate : 8 040 Kbps
Width : 640 pixels
Height : 480 pixels
Display aspect ratio : 4:3
Frame rate mode : Constant
Frame rate : 23.976 fps
Color space : YUV
Chroma subsampling : 4:2:0
Bit depth : 8 bits
Scan type : Progressive
Compression mode : Lossy
Bits/(Pixel*Frame) : 0.489
Stream size : 105 MiB (94%)
Writing library : Lavc52.68.2
Encoded date : UTC 2012-07-20 04:39:07
Tagged date : UTC 2012-07-20 04:39:10

Audio
ID : 2
Format : MPEG Audio
Format version : Version 1
Format profile : Layer 3
Mode : Joint stereo
Mode extension : MS Stereo
Codec ID : 6B
Duration : 4mn 3s
Bit rate mode : Constant
Bit rate : 224 Kbps
Maximum bit rate : 234 Kbps
Channel(s) : 2 channels
Sampling rate : 44.1 KHz
Compression mode : Lossy
Stream size : 6.51 MiB (6%)
Writing library : LAME3.98.4
Encoded date : UTC 2012-07-20 04:39:10
Tagged date : UTC 2012-07-20 04:39:10
Code:
You must click 'Thanks!' before you can see the data contained here.
The material contained in this external links is intented for promotional use by professional VJ's only. If you aren't one of them, you are forbidden to use it.
__________________
Requests

Audio Requests

My Other Uploads

Thumbs Up!
 
Who Said Thanks:
Paulwall (September 1st, 2013), High Rolle (February 11th, 2013), Knify (January 20th, 2013), graf_roman (December 8th, 2012), salvador22 (October 5th, 2012), funkyman (July 21st, 2012)
Reply

Tags
cartel, central, south, switches

Thread Tools

Posting Rules
You may not post new threads
You may not post replies
You may not post attachments
You may not edit your posts

BB code is On
Smilies are On
[IMG] code is On
HTML code is Off
Trackbacks are On
Pingbacks are On
Refbacks are On



All times are GMT -5. The time now is 02:03 AM.


Powered by vBulletin® Version 3.8.2
Copyright ©2000 - 2014, Jelsoft Enterprises Ltd.
Content Relevant URLs by vBSEO 3.3.2
Template-Modifications by TMS